Что если...? / What If...? / Сезон: 1 / Серии: 1-9 из 9 [2021, WEB-DL 2160p] LostFilm, AlexFilm, TVShows, HDRezka Studio скачать торрент

Reply to topic


DL-List and Torrent activity [Update пиров]
Size:  47.4 GB   |    Registered:  2 months 25 days   |    Completed:  0 times

Seeder not seen: Never

Leechers:  2  [  0 KB/s  ]   Show peers in full details
 
 
 
 
 
Author Message

.:Rtuty:. ®

Longevity: 4 months 1 day

Posts: 31

Location: Москва


Post 30-Jun-2022 17:31

[Quote]

--Что, если...? / What If...?-- Страна: США--Жанр: Мультфильм, фэнтези, боевик, приключения--Продолжительность серии: ~ 00:31:00--Год выпуска: 2021--Перевод: Профессиональный (многоголосый закадровый) | LostFilm
Профессиональный (многоголосый закадровый) | AlexFilm
Профессиональный (многоголосый закадровый) | TVShows
Любительский (многоголосый закадровый) | HDRezka Studio--Русские субтитры: есть--Режиссёр: Брайан Эндрюс--Роли озвучивали: Джеффри Райт (Jeffrey Wright), Чедвик Боузман (Chadwick Boseman), Хейли Этвелл (Hayley Atwell), Джошуа Китон (Josh Keaton), Сэмюэл Л. Джексон (Samuel L. Jackson), Джереми Реннер (Jeremy Renner), Стэнли Туччи (Stanley Tucci), Доминик Купер (Dominic Cooper), Брэдли Уитфорд (Bradley Whitford), Росс Маркванд (Ross Marquand), Нил МакДонаф (Neal McDonough), Себастиан Стэн (Sebastian Stan)--Описание: Создатели сериала представляют, что будет, если изменить некоторые важные моменты из жизни персонажей Marvel.--Качество: WEB-DL--Формат: MKV--Видео: MPEG-H HEVC, 3840x2160 (16:9), 24,000 кадров/сек, ~21,3 Мбит/сек, 0.107 bit/pixel--Аудио Rus: AC3, 48,0 kHz, 2 ch, 384 Кбит/сек | LostFilm--Аудио Rus: AC3, 48 kHz, 3/2 (L R C LFE Ls Rs) ch, 384 Кбит/сек | AlexFilm--Аудио Rus: AC3, 48 kHz, 3/2 (L R C LFE Ls Rs) ch, 384 Кбит/сек | TVShows--Аудио Rus: AC3, 48 kHz, 3/2 (L R C LFE Ls Rs) ch, 448 Кбит/сек | HDRezka Studio--Аудио Eng: E-AC3 JOC, 48 kHz, 3/2 (L R C LFE Ls Rs) ch, 768 Кбит/сек--Субтитры: Русские (Forced, Full | Где тексты, Лебовски?, Phys-Kids, FOCS|), английские (Full, SDH)--Реклама: Отсутствует--

Список серий:

01. Что, если бы первым Мстителем стала капитан Картер / What If... Captain Carter Were the First Avenger?
02. Что, если бы Звездным лордом стал Т'Чалла / What If... T'Challa Became a Star-Lord?
03. Что, если бы мир лишился своих величайших героев / What If... the World Lost Its Mightiest Heroes?
04. Что, если бы доктор Стрендж разбил не руки, а сердце? / What If... Doctor Strange Lost His Heart Instead of His Hands?
05. Что, если... зомби?! / What If... Zombies?!
06. Что, если... Киллмонгер спас бы Тони Старка? / What If... Killmonger Rescued Tony Stark?
07. Что, если... Тор был бы единственным сыном? / What If... Thor Were an Only Child?
08. Что, если... Альтрон бы победил? / What If... Ultron Won?
09. Что, если... Наблюдатель нарушил бы свою клятву? / What If... The Watcher Broke His Oath?

Подробные технические данные

Общее
Уникальный идентификатор : 135881967715556080551283489913987604489 (0x6639EA40E28868C77413CFFD62DF2009)
Полное имя : E:\What If (Season 1) HDR WEB-DL 2160p\What.If.S01E01.2160p.WEB-DL.DDP5.1.Atmos.HDR.H.265-RGzsRutracker.Wentworth_Miller.mkv
Формат : Matroska
Версия формата : Version 4
Размер файла : 5,17 Гбайт
Продолжительность : 31 м. 15 с.
Общий поток : 23,7 Мбит/сек
Название фильма : What If... 01x01 (What If... Captain Carter Were the First Avenger) - Release by Wentworth_Miller / What If - S01E01 - What If Captain Carter Were The First Avenger
Дата кодирования : UTC 2021-08-25 06:13:04
Программа кодирования : mkvmerge v57.0.0 ('Till The End') 64-bit
Библиотека кодирования : libebml v1.4.2 + libmatroska v1.6.4
IMDB : tt10168312
TMDB : tv/91363
Видео
Идентификатор : 1
Формат : HEVC
Формат/Информация : High Efficiency Video Coding
Профиль формата : Main [email protected]@Main
Идентификатор кодека : V_MPEGH/ISO/HEVC
Продолжительность : 31 м. 15 с.
Битрейт : 21,3 Мбит/сек
Ширина : 3 840 пикселей
Высота : 2 160 пикселей
Соотношение сторон : 16:9
Режим частоты кадров : Постоянный
Частота кадров : 24,000 кадра/сек
Цветовое пространство : YUV
Субдискретизация насыщенности : 4:2:0
Битовая глубина : 10 бит
Бит/(Пиксели*Кадры) : 0.107
Размер потока : 4,65 Гбайт (90%)
Заголовок : What If... Captain Carter Were the First Avenger
Библиотека кодирования : x265 3.5:[Linux][GCC 7.5.0][64 bit] 10bit
Настройки программы : cpuid=1111039 / frame-threads=1 / wpp / no-pmode / no-pme / no-psnr / no-ssim / log-level=2 / input-csp=1 / input-res=3840x2160 / interlace=0 / total-frames=0 / level-idc=50 / high-tier=0 / uhd-bd=0 / ref=3 / no-allow-non-conformance / repeat-headers / annexb / no-aud / no-hrd / info / hash=0 / no-temporal-layers / no-open-gop / min-keyint=48 / keyint=48 / gop-lookahead=0 / bframes=2 / b-adapt=0 / b-pyramid / bframe-bias=0 / rc-lookahead=48 / lookahead-slices=8 / scenecut=0 / hist-scenecut=0 / radl=0 / no-splice / no-intra-refresh / ctu=32 / min-cu-size=8 / no-rect / no-amp / max-tu-size=16 / tu-inter-depth=2 / tu-intra-depth=2 / limit-tu=0 / rdoq-level=1 / dynamic-rd=0.00 / no-ssim-rd / signhide / no-tskip / nr-intra=0 / nr-inter=0 / no-constrained-intra / no-strong-intra-smoothing / max-merge=3 / limit-refs=1 / no-limit-modes / me=1 / subme=2 / merange=44 / temporal-mvp / no-frame-dup / no-hme / weightp / no-weightb / no-analyze-src-pics / deblock=0:0 / no-sao / no-sao-non-deblock / rd=4 / selective-sao=0 / early-skip / rskip / no-fast-intra / no-tskip-fast / no-cu-lossless / b-intra / no-splitrd-skip / rdpenalty=1 / psy-rd=1.60 / psy-rdoq=5.00 / no-rd-refine / no-lossless / cbqpoffs=0 / crqpoffs=0 / rc=abr / bitrate=23000 / qcomp=0.75 / qpstep=4 / stats-write=0 / stats-read=0 / vbv-maxrate=25000 / vbv-bufsize=25000 / vbv-init=0.9 / ipratio=1.40 / pbratio=1.30 / aq-mode=3 / aq-strength=1.00 / no-cutree / zone-count=0 / no-strict-cbr / qg-size=32 / no-rc-grain / qpmax=69 / qpmin=0 / no-const-vbv / sar=1 / overscan=0 / videoformat=5 / range=0 / colorprim=9 / transfer=16 / colormatrix=9 / chromaloc=0 / display-window=0 / cll=0,0 / min-luma=0 / max-luma=1023 / log2-max-poc-lsb=8 / vui-timing-info / vui-hrd-info / slices=1 / no-opt-qp-pps / no-opt-ref-list-length-pps / no-multi-pass-opt-rps / scenecut-bias=0.00 / hist-threshold=0.01 / no-opt-cu-delta-qp / no-aq-motion / no-hdr10 / hdr10-opt / no-dhdr10-opt / no-idr-recovery-sei / analysis-reuse-level=0 / analysis-save-reuse-level=0 / analysis-load-reuse-level=0 / scale-factor=0 / refine-intra=0 / refine-inter=0 / refine-mv=1 / refine-ctu-distortion=0 / no-limit-sao / ctu-info=0 / no-lowpass-dct / refine-analysis-type=0 / copy-pic=1 / max-ausize-factor=1.0 / no-dynamic-refine / no-single-sei / no-hevc-aq / no-svt / no-field / qp-adaptation-range=1.00 / no-scenecut-aware-qpconformance-window-offsets / right=0 / bottom=0
Язык : English
Default : Да
Forced : Нет
Цветовой диапазон : Limited
Основные цвета : BT.2020
Характеристики трансфера : PQ
Коэффициенты матрицы : BT.2020 non-constant
Аудио #1
Идентификатор : 2
Формат : AC-3
Формат/Информация : Audio Coding 3
Коммерческое название : Dolby Digital
Идентификатор кодека : A_AC3
Продолжительность : 31 м. 15 с.
Вид битрейта : Постоянный
Битрейт : 384 Кбит/сек
Каналы : 2 канала
Channel layout : L R
Частота : 48,0 КГц
Частота кадров : 31,250 кадров/сек (1536 SPF)
Метод сжатия : С потерями
Размер потока : 85,9 Мбайт (2%)
Заголовок : LostFilm
Язык : Russian
Service kind : Complete Main
Default : Да
Forced : Нет
Аудио #2
Идентификатор : 3
Формат : AC-3
Формат/Информация : Audio Coding 3
Коммерческое название : Dolby Digital
Идентификатор кодека : A_AC3
Продолжительность : 31 м. 15 с.
Вид битрейта : Постоянный
Битрейт : 384 Кбит/сек
Каналы : 6 каналов
Channel layout : L R C LFE Ls Rs
Частота : 48,0 КГц
Частота кадров : 31,250 кадров/сек (1536 SPF)
Метод сжатия : С потерями
Размер потока : 85,9 Мбайт (2%)
Заголовок : AlexFilm
Язык : Russian
Service kind : Complete Main
Default : Нет
Forced : Нет
Аудио #3
Идентификатор : 4
Формат : AC-3
Формат/Информация : Audio Coding 3
Коммерческое название : Dolby Digital
Идентификатор кодека : A_AC3
Продолжительность : 31 м. 15 с.
Вид битрейта : Постоянный
Битрейт : 384 Кбит/сек
Каналы : 6 каналов
Channel layout : L R C LFE Ls Rs
Частота : 48,0 КГц
Частота кадров : 31,250 кадров/сек (1536 SPF)
Метод сжатия : С потерями
Размер потока : 85,9 Мбайт (2%)
Заголовок : TVShows
Язык : Russian
Service kind : Complete Main
Default : Нет
Forced : Нет
Аудио #4
Идентификатор : 5
Формат : AC-3
Формат/Информация : Audio Coding 3
Коммерческое название : Dolby Digital
Идентификатор кодека : A_AC3
Продолжительность : 31 м. 15 с.
Вид битрейта : Постоянный
Битрейт : 448 Кбит/сек
Каналы : 6 каналов
Channel layout : L R C LFE Ls Rs
Частота : 48,0 КГц
Частота кадров : 31,250 кадров/сек (1536 SPF)
Метод сжатия : С потерями
Размер потока : 100 Мбайт (2%)
Заголовок : HDRezka Studio
Язык : Russian
Service kind : Complete Main
Default : Нет
Forced : Нет
Аудио #5
Идентификатор : 6
Формат : E-AC-3 JOC
Формат/Информация : Enhanced AC-3 with Joint Object Coding
Коммерческое название : Dolby Digital Plus with Dolby Atmos
Идентификатор кодека : A_EAC3
Продолжительность : 31 м. 15 с.
Вид битрейта : Постоянный
Битрейт : 768 Кбит/сек
Каналы : 6 каналов
Channel layout : L R C LFE Ls Rs
Частота : 48,0 КГц
Частота кадров : 31,250 кадров/сек (1536 SPF)
Метод сжатия : С потерями
Размер потока : 172 Мбайт (3%)
Язык : English
Service kind : Complete Main
Default : Нет
Forced : Нет
Complexity index : 16
Number of dynamic objects : 15
Bed channel count : 1 канал
Bed channel configuration : LFE
Текст #1
Идентификатор : 7
Формат : UTF-8
Идентификатор кодека : S_TEXT/UTF8
Идентификатор кодека/Информация : UTF-8 Plain Text
Продолжительность : 28 м. 0 с.
Битрейт : 1 бит/сек
Count of elements : 12
Размер потока : 395 байт (0%)
Заголовок : Forced
Язык : Russian
Default : Да
Forced : Нет
Текст #2
Идентификатор : 8
Формат : UTF-8
Идентификатор кодека : S_TEXT/UTF8
Идентификатор кодека/Информация : UTF-8 Plain Text
Продолжительность : 28 м. 42 с.
Битрейт : 99 бит/сек
Count of elements : 324
Размер потока : 20,9 Кбайт (0%)
Заголовок : Где тексты, Лебовски?
Язык : Russian
Default : Нет
Forced : Нет
Текст #3
Идентификатор : 9
Формат : UTF-8
Идентификатор кодека : S_TEXT/UTF8
Идентификатор кодека/Информация : UTF-8 Plain Text
Продолжительность : 28 м. 26 с.
Битрейт : 89 бит/сек
Count of elements : 322
Размер потока : 18,6 Кбайт (0%)
Заголовок : PhysKids
Язык : Russian
Default : Нет
Forced : Нет
Текст #4
Идентификатор : 10
Формат : UTF-8
Идентификатор кодека : S_TEXT/UTF8
Идентификатор кодека/Информация : UTF-8 Plain Text
Продолжительность : 29 м. 18 с.
Битрейт : 100 бит/сек
Count of elements : 326
Размер потока : 21,6 Кбайт (0%)
Заголовок : FOCS
Язык : Russian
Default : Нет
Forced : Нет
Текст #5
Идентификатор : 11
Формат : UTF-8
Идентификатор кодека : S_TEXT/UTF8
Идентификатор кодека/Информация : UTF-8 Plain Text
Продолжительность : 28 м. 24 с.
Битрейт : 60 бит/сек
Count of elements : 320
Размер потока : 12,7 Кбайт (0%)
Заголовок : Full
Язык : English
Default : Нет
Forced : Нет
Текст #6
Идентификатор : 12
Формат : UTF-8
Идентификатор кодека : S_TEXT/UTF8
Идентификатор кодека/Информация : UTF-8 Plain Text
Продолжительность : 28 м. 24 с.
Битрейт : 64 бит/сек
Count of elements : 379
Размер потока : 13,5 Кбайт (0%)
Заголовок : SDH
Язык : English
Default : Нет
Forced : Нет
Меню
00:29:58.833 : Credits

Скриншоты



Смотреть онлайн

[trackeroc.org].34836.torrent  Магнет ссылка
Torrent: Registered   [ 2022-06-30 17:31 ]

Скачать торрент

238 KB

Status: checked
Completed: 69 times
Size: 47.4 GB
 

trackeroc.info (30-июн-22)


_________________
[Profile] [PM]
Display posts from previous:    
Reply to topic

The time now is: Today 03:29

All times are GMT + 4 Hours



You cannot post new topics in this forum
You cannot reply to topics in this forum
You cannot edit your posts in this forum
You cannot delete your posts in this forum
You cannot vote in polls in this forum
You cannot attach files in this forum
You can download files in this forum